読者です 読者をやめる 読者になる 読者になる

ふらくちゅえいしょん

いつまで経っても古いロックと少女マンガ漬け

Paul McCartney - 2013-05-18 Amway Center Arena Orlando, Florida (AUD Shot)

Artist  : Paul McCartney
Date    : 2013-05-18
Venue   : Amway Center Arena Orlando, Florida
Lineage : AUD
Quality : EX

2013/05/18に録音された素晴らしい音源に、映像をかぶせたものです。何台かのオーディエンスショットのカメラで編集されていますが、基本的には左手からのショットとなります。

Paulに焦点を当ててのズームや、ソロを弾くメンバーにも焦点を当てていて、見やすい編集となっています。

ジャケットを脱ぐときに足にベースを挟んでいますが、その後チューニングしていないのですが、狂わないものなんですね…。

YouTubeへの投稿映像はほとんどチェックしていないので、そちらの映像のアップ状況はわかりませんが、必見の映像であることは間違い有りません。

また"Blu-Ray Edition"とありますが、DVDで作成されたものは入手していませんので、存在はわかりません。

----- Latest Information ----

PAUL McCARTNEY
"OUT THERE" TOUR
Orlando, Florida, USA
Amway Center Arena
May 18, 2013
Blu-Ray Edition

Disc 1 (0:59:53:11) (Tracks 1-16)
01. Paul McCartney Gets #OutThere In Orlando
02. Beginning
03. Eight Days A Week
04. Junior's Farm
05. All My Loving
06. Listen To What The Man Said
07. Let Me Roll It
08. Paperback Writer
09. My Valentine
10. Nineteen Hundred And Eighty-Five
11. The Long And Winding Road
12. Maybe I'm Amazed
13. Hope Of Deliverance
14. We Can Work It Out
15. Another Day
16. And I Love Her
17. Blackbird
18. Here Today
19. Your Mother Should Know
20. Lady Madonna
21. All Together Now
22. Mrs. Vanderbilt
23. Eleanor Rigby
24. Being For The Benefit Of Mr. Kite!
25. Something
26. Ob-La-Di, Ob-La-Da
27. Hi, Hi, Hi
28. Band On The Run
29. Back In The USSR
30. Let It Be
31. Live And Let Die
32. Hey Jude

Encore Break 1

33. Day Tripper
34. Lovely Rita
35. Get Back

Encore Break 2

36. Yesterday
37. Helter Skelter
38. Thanks & Intros
39. Golden Slumbers - Carry That Weight - The End
40. Final Bows & Credits

Total Time: 2:40:06:19 (NTSC)

The Band:
Paul McCartney (Lead Vocals, Bass, Acoustic Guitar, Piano, Electric Guitar, Ukelele)
Rusty Anderson (Backing Vocals, Electric Guitar, Acoustic Guitar)
Brian Ray (Backing Vocals, Bass, Electric Guitar, Acoustic Guitar, Tambourine)
Abe Laboriel, Jr. (Backing Vocals, Drums, Bass, Percussion)
Paul Wickens (Backing Vocals, Keyboards, Electric Guitar, Percussion, Harmonica)

THIS IS A FAN-MADE PROJECT. NOT FOR SALE.

Special thanks for the primary video sources to RON, RICARDO & JAVILU.
Thanks for additional video assets to: TheKingOfLimbs2, Stephen Chip, rokitman4, Raul Rojas & PaulMcCartney
Sincere thanks for the audio to DATFLY.
Edited, sound upgraded & authored by YASSOU.

VIDEO SOURCES & LINEAGE:
CAMERA 1:
Filmer: Ron
Location: Right balcony 70˙
Camera: Panasonic Lumix ZS10 1080p
camera > AVCHD > BDMV > MTS > MP4 > MacBook Pro > iMovie 6.0.3.

CAMERA 2:
Filmer: Ricardo Janoher.
Location: Left rear 40˙
Camera: Sony DS 20
camera > AVCHD > BDMV > MTS > MP4 > MacBook Pro > iMovie 6.0.3.

OTHER CAMERAS:
YouTube videos found in various formats, mostly 1080p.
YouTube videos > MacBook Pro > DownLoad Helper > MP4 > iMovie 6.0.3.

CAMERA 3:
Filmed and uploaded by: TheKingOfLimbs2
Camera: Unknown 1080p
Location: Center balcony

CAMERA 4:
Filmed and uploaded by: Stephen Chip
Camera: Unknown 1080p
Location: Right rear 45˙

CAMERA 5:
Filmed and uploaded by: rokitman4
Camera: Unknown 720p
Location: High left balcony 30˙

CAMERA 6:
"Paul McCartney Gets #OutThere In Orlando" video:
Filmed and uploaded to YouTube in 720p by:  PaulMcCartney
Pro shot w/unknown camera, probably in highest resolution

CAMERA 7:
Filmed and uploaded by: Raul Rojas
From 5-19-13 show/used for flag waving segment before 1st encore.
Camera: Unknown 1080p
Location: High center balcony

AUDIO SOURCE & LINEAGE:
Recorded by: Datfly
Recording Location: Back of Arena Center Section 218
Schoeps MK41 cards - Nbob Actives - Naiant Tinybox Transfo Out - Sony M10 (24-48)
Transfer: Micro SD card > wav file > Adobe Audition > Normalize-Downsample > CD Wave Cut > TLH - FLAC Level 8 & Align on SB
Uploaded to DIME tracker >  MacBook Pro > flac > xACT 2.23 > aiff > Toast Titanium 11.0.4 > SD II disk images > iMovie 6.0.3.

BLU-RAY PRODUCTION PROCESS:
Produced by yassou on a bootcamped MacBook Pro running Lion 10.7.5 w/Apple iMovie 6.0.3 software and Windows 7 Ultimate w/TEMPGEnc 5.0 software.
Audio and video assets edited in iMovie 6.0.3, then authored with TEMPGEnc AW-5.0 to bdmv folder.

MD5 checksums generated by xACT 2.23 on 2013-08-18 19:19:22 +0000

8d98d25d510358bc007c9317514f66da 00000.clpi
ee309280de49276cd793d91e97abd175
01000.clpi
ed1e1d4eac268a942798f8a255cd75d5 01001.clpi
8a9d6cf605b1c01d7a817befdabf4a2f
01002.clpi
72d6a8909295089eb7037aa5e9255929 index.bdmv
689aeef85729159b2caf1e46c0516f46
MovieObject.bdmv
804ffde796deff41db39a3491185c7dc 00000.mpls
dd5455d774dd28037685e58b98e4cf7b
01000.mpls
b9790e606c18ca72e0aa22b90f11e47a 01001.mpls
8258e829b75a5874d9e6793041b7ae6f
01002.mpls
8d98d25d510358bc007c9317514f66da 00000.clpi
ee309280de49276cd793d91e97abd175
01000.clpi
ed1e1d4eac268a942798f8a255cd75d5 01001.clpi
8a9d6cf605b1c01d7a817befdabf4a2f
01002.clpi
72d6a8909295089eb7037aa5e9255929 index.bdmv
689aeef85729159b2caf1e46c0516f46
MovieObject.bdmv
804ffde796deff41db39a3491185c7dc 00000.mpls
dd5455d774dd28037685e58b98e4cf7b
01000.mpls
b9790e606c18ca72e0aa22b90f11e47a 01001.mpls
8258e829b75a5874d9e6793041b7ae6f
01002.mpls
7255523b09cef97c877d25373662ef68 00000.m2ts
4eeadb2964785d72dd801239a117e0a2
01000.m2ts
43d96bbe8f20f96b076eaa526742c1b2 01001.m2ts
543d3e8347cb9ee92376a45f6f0a9daf
01002.m2ts

Stream info generated by v0.7.60
General
ID : 1 (0x1)
Complete name : /Volumes/BOOTCAMP/BDMV/STREAM/00000.m2ts
Format : BDAV
Format/Info : Blu-ray Video
File size : 21.7 GiB
Duration : 2h 40mn
Overall bit rate mode : Variable
Overall bit rate : 19.4 Mbps
Maximum Overall bit rate : 31.1 Mbps

Video
ID : 4113 (0x1011)
Menu ID : 1 (0x1)
Format : AVC
Format/Info : Advanced Video Codec
Format profile : High@L4.1
Format settings, CABAC : Yes
Format settings, ReFrames : 3 frames
Codec ID : 27
Duration : 2h 40mn
Bit rate mode : Variable
Bit rate : 18.5 Mbps
Nominal bit rate : 0 bps
Maximum bit rate : 30.0 Mbps
Width : 1 440 pixels
Height : 1 080 pixels
Display aspect ratio : 16:9
Frame rate : 29.970 fps
Standard : Component
Color space : YUV
Chroma subsampling : 4:2:0
Bit depth : 8 bits
Scan type : MBAFF
Bits/(Pixel*Frame) : 0.396
Stream size : 20.7 GiB (95%)
Writing library : x264 core 120
Encoding settings : cabac=1 / ref=3 / deblock=1:0:0 / analyse=0x3:0x113 / me=hex / subme=4 / psy=1 / psy_rd=1.00:0.00 / mixed_ref=0 / me_range=16 / chroma_me=1 / trellis=1 / 8x8dct=1 / cqm=2 / deadzone=21,11 / fast_pskip=1 / chroma_qp_offset=0 / threads=12 / sliced_threads=0 / slices=4 / nr=0 / decimate=1 / interlaced=tff / bluray_compat=1 / constrained_intra=0 / bframes=3 / b_pyramid=0 / b_adapt=1 / b_bias=0 / direct=1 / weightb=1 / open_gop=1 / weightp=0 / keyint=30 / keyint_min=1 / scenecut=40 / intra_refresh=0 / rc_lookahead=20 / rc=abr / mbtree=1 / bitrate=18203194 / ratetol=1.0 / qcomp=0.60 / qpmin=1 / qpmax=69 / qpstep=4 / vbv_maxrate=30000000 / vbv_bufsize=30000000 / nal_hrd=vbr / ip_ratio=1.40 / aq=1:1.00
Color primaries : BT.709
Transfer characteristics : BT.709
Matrix coefficients : BT.709

Audio
ID : 4352 (0x1100)
Menu ID : 1 (0x1)
Format : AC-3
Format/Info : Audio Coding 3
Mode extension : CM (complete main)
Format settings, Endianness : Big
Codec ID : 129
Duration : 2h 40mn
Bit rate mode : Constant
Bit rate : 192 Kbps
Channel(s) : 2 channels
Channel positions : Front: L R
Sampling rate : 48.0 KHz
Bit depth : 16 bits
Compression mode : Lossy
Stream size : 220 MiB (1%)